<?xml version="1.0" standalone="no"?>
<!DOCTYPE svg PUBLIC "-//W3C//DTD SVG 1.1//EN" "http://www.w3.org/Graphics/SVG/1.1/DTD/svg11.dtd" >
<svg xmlns="http://www.w3.org/2000/svg">
<metadata>Generated by IcoMoon</metadata>
<defs>
<font id="social-share" horiz-adv-x="1024">
<font-face units-per-em="1024" ascent="1194" descent="170" />
<missing-glyph horiz-adv-x="1024" />
<glyph unicode="&#x20;" horiz-adv-x="0" d="" />
<glyph unicode="&#xe900;" glyph-name="moimir" d="M495.62 958.36c71.948 0 139.748-31.724 189.51-81.692v-0.208c0 23.844 16.172 41.882 38.566 41.882h5.598c35.040 0 42.090-33.174 42.090-43.542l0.208-371.97c-2.488-24.258 25.088-36.906 40.432-21.356 59.714 61.378 131.246 315.574-37.114 462.786-156.958 137.468-367.408 114.864-479.372 37.736-119.014-82.109-195.108-263.738-121.088-434.38 80.656-186.192 311.426-241.552 448.478-186.192 69.46 27.986 101.598-65.934 29.442-96.414-109.062-46.444-412.194-41.676-554.016 203.607-95.792 165.666-90.608 457.394 163.178 608.338 194.278 115.486 450.344 83.558 604.606-77.752 161.312-168.568 151.977-484.348-5.39-607.094-71.326-55.774-177.276-1.452-176.654 79.826l-0.83 26.54c-49.762-49.348-115.696-77.96-187.854-77.96-142.236 0-267.47 125.234-267.47 267.47 0.208 143.688 125.442 270.372 267.678 270.372v0 0 0zM674.762 698.354c-5.39 104.086-82.723 166.91-176.032 166.91h-3.524c-107.818 0-167.532-84.802-167.532-181.008 0-107.818 72.362-175.826 167.123-175.826 105.744 0 175.204 77.338 180.18 168.98l-0.208 20.942z" />
<glyph unicode="&#xe901;" glyph-name="wechat" horiz-adv-x="1170" d="M331.429 906.857c0 31.429-20.571 52-52 52-30.857 0-62.286-20.571-62.286-52 0-30.857 31.429-51.429 62.286-51.429 31.429 0 52 20.571 52 51.429zM756 617.143c0 20.571-20.571 41.143-52 41.143-20.571 0-41.143-20.571-41.143-41.143 0-21.143 20.571-41.714 41.143-41.714 31.429 0 52 20.571 52 41.714zM621.143 906.857c0 31.429-20.571 52-51.429 52-31.429 0-62.286-20.571-62.286-52 0-30.857 30.857-51.429 62.286-51.429 30.857 0 51.429 20.571 51.429 51.429zM984 617.143c0 20.571-21.143 41.143-52 41.143-20.571 0-41.143-20.571-41.143-41.143 0-21.143 20.571-41.714 41.143-41.714 30.857 0 52 20.571 52 41.714zM832 844c-13.143 1.714-26.286 2.286-40 2.286-196.571 0-352-146.857-352-327.429 0-30.286 4.571-59.429 13.143-86.857-13.143-1.143-25.714-1.714-38.857-1.714-52 0-93.143 10.286-145.143 20.571l-144.571-72.571 41.143 124.571c-103.429 72.571-165.714 166.286-165.714 280 0 197.143 186.286 352 414.286 352 203.429 0 382.286-124 417.714-290.857zM1170.286 523.429c0-93.143-61.714-176-145.143-238.286l31.429-103.429-113.714 62.286c-41.714-10.286-83.429-21.143-124.571-21.143-197.143 0-352 134.857-352 300.571s154.857 300.571 352 300.571c186.286 0 352-134.857 352-300.571z" />
<glyph unicode="&#xe902;" glyph-name="liveinternet" d="M300.070 1053.926c-49.848 0-98.147 0-147.995 0 0-241.189 0-480.83 0-719.851 146.138 0 291.037 0 435.316 0 0 47.371 0 93.194 0 141.184-96.29 0-191.031 0-287.321 0 0 194.128 0 386.088 0 578.667zM731.98 765.676c0-144.899 0-288.25 0-431.291 47.68 0 93.813 0 139.945 0 0 144.589 0 287.631 0 431.291-47.061 0-93.194 0-139.945 0v0zM871.925 1053.926c-46.752 0-92.574 0-139.636 0 0-47.68 0-93.813 0-139.636 47.68 0 93.813 0 139.636 0 0 47.371 0 92.884 0 139.636z" />
<glyph unicode="&#xe903;" glyph-name="instapaper" d="M317.361 1182h389.272v-96.646c0 0-27.786 1.972-71.313 2.712s-43.524-52.125-43.524-56.069c0-21.388-0.74-685.336-0.74-685.336s0-37.619 33.694-49.925h81.893v-90.738h-389.272v91.47l76.964-1.726c0 0 37.619 4.911 38.605 52.371 0.493 32.462-1.479 619.919-1.726 688.048-2.958 12.536-0.493 55.083-59.018 51.881-22.128-1.233-54.836-1.479-54.836-1.479v95.413z" />
<glyph unicode="&#xe904;" glyph-name="surfingbird" d="M852.126 893.245l-13.686-127.195-219.975-216.352h-116.73l-44.679-116.931v-161.409l-158.189 44.679 182.138 326.44-481.006 271.497 360.855-48.101-175.296 250.767 477.585-257.811 140.881 158.189h65.409l154.566-68.83z" />
<glyph unicode="&#xe905;" glyph-name="livejournal" horiz-adv-x="954" d="M508.8 1113.2c-64 0-121.6-12.8-176-35.2l-102.4 96c-102.4-44.8-185.6-128-230.4-233.6l99.2-99.2c44.8 105.6 128 188.8 230.4 233.6v0l364.8-361.6c-102.4-44.8-185.6-128-230.4-233.6l-364.8 361.6c-22.4-54.4-38.4-115.2-38.4-176 0-246.4 201.6-448 448-448s448 201.6 448 448c-3.2 246.4-201.6 448-448 448zM585.6 454c25.6 60.8 73.6 108.8 134.4 134.4l35.2-169.6-169.6 35.2z" />
<glyph unicode="&#xe906;" glyph-name="meneame" d="M520.286 701.641c-21.724-13.491-43.479-21.135-66.37-25.94-33.574-7.055-67.253-7.055-100.795-0.62-28.979 5.552-52.753 21.198-71.932 42.995-38.011 43.195-65.402 92.016-73.509 149.91-11.114 79.324 16.698 143.58 77.547 193.999 43.658 36.171 95.506 53.699 150.573 63.478 86.401 15.32 168.112-1.483 247.194-35.687 40.598-17.57 79.839-38.348 121.773-52.848 9.253-3.207 18.622-6.099 28.359-7.476 17.57-2.46 31.965 3.491 43.542 16.55 15.12 17.087 20.441 37.643 20.399 60.008 4.248 0.242 5.131-3.081 6.488-5.583 12.902-23.7 9.222-62.258-8.286-82.331-18.317-21.030-42.68-24.773-68.567-21.776-29.421 3.396-57.38 11.987-84.203 24.762-50.398 24.026-101.521 46.202-156.282 58.599-68.557 15.53-136.567 12.797-203.116-9.306-96.894-32.186-147.828-128.46-121.447-227.268 15.215-57.022 47.285-101.931 97.378-133.686 21.671-13.743 45.561-18.054 70.765-17.728 25.509 0.368 50.366 5.342 75.276 10.052 4.311 0.831 8.517 1.903 15.215-0.105zM622.185 215.571c-4.648 1.556-13.333-3.638-14.71 2.85-1.356 6.34 7.707 8.422 12.975 10.631 32.133 13.364 64.53 26.129 96.674 39.473 20.010 8.307 39.536 17.697 57.506 29.957 6.172 4.216 11.85 9.011 16.855 14.595 7.949 8.864 9.863 18.212 5.226 29.852-24.447 61.218-51.744 121.341-73.173 183.779-17.276 50.345-30.977 101.395-34.625 154.936-4.29 63.163 17.581 112.278 72.090 146.083 25.688 15.962 53.279 27.854 80.901 39.799 34.152 14.763 67.958 29.904 97.914 52.785 44.835 34.194 59.556 80.050 55.718 134.149-1.724 24.352-5.794 48.274-11.356 72.006-0.641 2.692-4.301 6.666 0.547 8.748 4.364 1.893 6.687-1.504 8.57-4.963 14.595-26.529 26.003-54.057 29.568-84.539 6.887-58.641-18.769-103.361-59.346-142.056-25.888-24.689-57.674-39.967-89.029-55.897-28.317-14.395-57.548-27.128-84.224-44.615-29.084-19.053-53.184-42.259-61.186-77.684-6.519-28.811-1.23-57.316 4.574-85.528 12.765-62.027 37.885-119.806 62.69-177.628 12.828-29.831 26.497-59.314 36.697-90.154 16.456-49.725 2.723-88.072-41.534-116-31.828-20.062-67.505-28.842-104.097-34.678-21.408-3.396-43.037-4.458-65.224-5.899zM193.841 812.016c-0.789-5.173-3.722-9.106-6.53-13.112-47.317-67.516-87.852-138.701-118.418-215.46-21.293-53.489-26.403-108.114-12.344-164 17.402-69.135 63.436-111.826 128.334-136.924 47.054-18.191 96.106-26.939 145.873-32.796 69.156-8.181 138.586-13.638 207.889-20.367 6.666-0.641 13.259-2.482 19.768-4.237 3.133-0.841 7.182-2.124 6.751-6.361-0.526-4.91-5.068-3.438-8.139-3.691-44.867-3.649-89.797-5.678-134.811-6.351-63.331-0.946-126.883-1.388-189.341 9.137-101.479 17.097-180.13 67.611-218.299 167.291-20.462 53.489-17.886 109.207-1.409 163.527 24.72 81.49 62.122 156.272 123.013 217.51 15.772 15.846 33.542 29.473 50.934 43.479 1.693 1.335 3.26 3.47 6.73 2.355zM366.99 441.073c71.764 11.766 143.391 18.212 215.544 9.579 34.373-4.132 40.903-11.167 41.702-45.834 1.293-54.867-6.372-108.671-21.934-161.308-2.597-8.759-5.815-17.381-11.251-24.868-2.145-2.955-4.532-6.677-8.938-5.131-3.89 1.356-3.365 5.478-3.533 8.769-1.051 23.448 2.786 46.57 4.952 69.808 3.102 33.28 8.675 66.401 5.604 100.112-0.978 10.662-5.867 17.15-15.331 21.692-27.98 13.406-58 17.77-88.335 20.756-37.075 3.607-74.361 3.26-111.51 5.478-2.345 0.137-4.637 0.62-6.971 0.946z" />
<glyph unicode="&#xe907;" glyph-name="baidu" d="M184.32 666.352c111.36 23.936 96 157.12 92.8 186.24-5.44 44.8-58.24 123.2-129.792 116.928-90.112-8-103.168-138.24-103.168-138.24-12.288-60.16 29.056-188.8 140.16-164.928zM391.040 889.584c61.44 0 111.040 70.784 111.040 158.272 0 87.104-49.6 158.144-111.040 158.144s-111.36-70.656-111.36-158.080c0-87.552 49.92-158.336 111.36-158.336zM655.872 879.152c82.24-10.752 134.912 76.992 145.472 143.488 10.88 66.368-42.24 143.552-100.48 156.8-58.24 13.44-130.56-80-137.6-140.8-7.68-74.624 10.88-148.928 92.8-159.488zM981.824 767.472c0 31.808-26.24 127.68-124.16 127.68s-111.424-90.432-111.424-154.432c0-60.8 5.12-145.92 127.36-143.36 121.856 3.2 108.544 138.24 108.544 170.24zM857.6 488.56s-127.232 98.56-201.472 204.8c-100.8 156.8-243.84 92.992-291.584 13.44-47.744-80.256-121.984-130.56-132.48-144-10.688-13.12-153.6-90.24-121.856-231.232 31.744-140.8 143.168-138.24 143.168-138.24s81.92-7.936 177.28 13.312c95.36 21.248 177.28-5.12 177.28-5.12s222.080-74.688 283.52 68.928c60.8 143.68-34.56 218.24-34.56 218.24z" />
<glyph unicode="&#xe90a;" glyph-name="line" d="M826.24 785.52c14.848 0 26.88-12.16 26.88-26.88s-12.032-26.88-26.88-26.88h-74.88v-48h74.88c14.848 0 26.88-12.032 26.88-26.88 0-14.72-12.032-26.88-26.88-26.88h-101.76c-14.72 0-26.752 12.16-26.752 26.88v203.52c0 14.72 12.032 26.88 26.88 26.88h101.76c14.72 0 26.752-12.16 26.752-26.88 0-14.848-12.032-26.88-26.88-26.88h-74.88v-48h74.88zM661.76 656.88c0-11.52-7.424-21.76-18.432-25.472-2.752-0.896-5.632-1.28-8.512-1.28-8.96 0-16.64 3.84-21.76 10.688l-104.256 141.504v-125.44c0-14.72-11.904-26.88-26.88-26.88-14.72 0-26.688 12.16-26.688 26.88v203.52c0 11.52 7.36 21.76 18.304 25.408 2.56 0.96 5.76 1.408 8.32 1.408 8.32 0 16-4.48 21.12-10.88l105.024-142.016v126.080c0 14.72 12.032 26.88 26.88 26.88 14.72 0 26.88-12.16 26.88-26.88v-203.52zM416.768 656.88c0-14.72-12.032-26.88-26.88-26.88-14.72 0-26.752 12.16-26.752 26.88v203.52c0 14.72 12.032 26.88 26.88 26.88 14.72 0 26.752-12.16 26.752-26.88v-203.52zM311.552 630h-101.76c-14.72 0-26.88 12.16-26.88 26.88v203.52c0 14.72 12.16 26.88 26.88 26.88 14.848 0 26.88-12.16 26.88-26.88v-176.64h74.88c14.848 0 26.88-12.032 26.88-26.88 0-14.72-12.032-26.88-26.88-26.88zM1024 766.32c0 229.12-229.76 415.616-512 415.616s-512-186.496-512-415.616c0-205.312 182.144-377.344 428.16-409.92 16.64-3.584 39.36-11.008 45.12-25.216 5.12-12.8 3.392-32.64 1.664-46.080l-7.040-43.52c-1.92-12.8-10.24-50.56 44.8-27.52s295.040 174.080 402.56 297.6c73.536 80.576 108.736 163.136 108.736 254.656z" />
<glyph unicode="&#xf099;" glyph-name="twitter" d="M918.74 880.572c0.65-9.096 0.65-18.195 0.65-27.291 0-277.44-211.166-597.116-597.118-597.116-118.904 0-229.36 34.438-322.274 94.211 16.895-1.947 33.137-2.598 50.68-2.598 98.109 0 188.426 33.137 260.548 89.664-92.264 1.951-169.584 62.377-196.225 145.545 12.996-1.949 25.99-3.248 39.637-3.248 18.842 0 37.686 2.6 55.227 7.146-96.162 19.494-168.285 103.959-168.285 205.968v2.598c27.938-15.594 60.428-25.34 94.861-26.637-56.527 37.686-93.561 102.010-93.561 174.781 0 38.984 10.393 74.721 28.588 105.908 103.309-127.35 258.6-210.516 432.728-219.614-3.248 15.594-5.197 31.836-5.197 48.080 0 115.654 93.564 209.868 209.868 209.868 60.428 0 115.004-25.34 153.342-66.273 47.43 9.096 92.91 26.639 133.197 50.68-15.596-48.732-48.732-89.666-92.264-115.654 42.234 4.547 83.168 16.244 120.852 32.486-28.584-41.582-64.322-78.617-105.256-108.506z" />
<glyph unicode="&#xf0d2;" glyph-name="pinterest" horiz-adv-x="992" d="M992 672.004c0-274-222-496-496-496-51.199 0-100.4 7.801-146.801 22.199 20.201 33 50.4 87 61.602 130 6 23.201 30.799 118 30.799 118 16.201-30.799 63.4-57 113.6-57 149.602 0 257.4 137.602 257.4 308.602 0 163.799-133.799 286.398-305.798 286.398-214 0-327.8-143.6-327.8-300.2 0-72.801 38.801-163.4 100.6-192.199 9.4-4.4 14.4-2.4 16.6 6.6 1.602 6.799 10 40.6 13.801 56.199 1.199 5 0.6 9.4-3.4 14.201-20.199 25-36.6 70.6-36.6 113.199 0 109.4 82.801 215.2 224 215.2 121.801 0 207.2-83 207.2-201.798 0-134.201-67.799-227.202-156-227.202-48.6 0-85.199 40.201-73.398 89.602 14 59 41 122.6 41 165.199 0 38-20.4 69.801-62.801 69.801-49.801 0-89.801-51.4-89.801-120.4 0-44 14.801-73.6 14.801-73.6s-49-207.602-58-246.4c-10-42.801-6-103.201-1.801-142.4-184.398 72.199-315.2 251.8-315.2 462 0 274 222 496 496 496s496-222 496-496z" />
<glyph unicode="&#xf0e1;" glyph-name="linkedin" d="M200.56 288.004h-185.76v598.2h185.76v-598.2zM107.58 967.804c-59.4 0-107.58 49.199-107.58 108.6 0 59.383 48.195 107.58 107.58 107.58s107.58-48.197 107.58-107.58c0-59.4-48.199-108.6-107.58-108.6zM895.8 288.004h-185.361v291.2c0 69.4-1.4 158.4-96.58 158.4-96.58 0-111.379-75.4-111.379-153.4v-296.2h-185.561v598.2h178.16v-81.6h2.6c24.801 47 85.381 96.6 175.76 96.6 188 0 222.56-123.799 222.56-284.6v-328.6h-0.199z" />
<glyph unicode="&#xf168;" glyph-name="xing" horiz-adv-x="768" d="M325.4 764.004c-3.6-6.6-50.4-88.801-140.201-247-9.799-16.6-21.6-25-35.398-25h-130.201c-15.4 0-24.199 15-17 28.801l138 242.6c0.4 0 0.4 0.199 0 0.6l-87.799 151.199c-8.602 15.602 0.6 28.201 17 28.201h130.199c14.6 0 26.6-8.201 36-24.4zM765.2 1091.804l-288-506v-0.602l183.201-333.2c7.799-14.199 0.4-28.199-17-28.199h-130.4c-15.199 0-27.199 8-36 24.398l-184.801 337c6.602 11.602 103 181.602 289.602 510.4 9.199 16.201 20.799 24.4 35 24.4h131.398c16 0 24.602-13.4 17-28.199z" />
<glyph unicode="&#xf173;" glyph-name="tumblr" horiz-adv-x="640" d="M619.6 223.404c-27.199-29-100-63.4-194.799-63.4-241.602 0-294 177.6-294 281.2v288h-95c-11 0-20 9-20 20v136c0 14.4 9 27.201 22.6 32 124 43.602 163 152 168.6 234.202 1.6 22 13 32.6 32.199 32.6h141.801c11 0 20-9 20-20v-230.4h166c11 0 20-8.799 20-19.799v-163.4c0-11-9-20-20-20h-166.801v-266.4c0-68.4 47.4-107.199 136-71.6 9.602 3.799 18 6.4 25.4 4.4 7-1.801 11.6-6.801 14.801-15.801l44-128.6c3.6-10 6.6-21.201-0.801-29z" />
<glyph unicode="&#xf17e;" glyph-name="skype" d="M849.4 584.404c29.199-37.801 46.6-85 46.4-136.201 0-123.6-100.4-224-224-224-51.201 0-98.4 17.4-136.4 46.602-28.201-6-57.801-9.4-87.6-9.4-226.8 0-410.602 183.6-410.602 410.6 0 29.801 3.602 59.6 9.4 87.6-29.199 37.801-46.6 85-46.6 136.4 0 123.6 100.4 224 224 224 51.4 0 98.6-17.4 136.6-46.801 28.201 6 57.801 9.4 87.6 9.4 226.8 0 410.602-183.6 410.602-410.6 0-29.801-3.602-59.6-9.4-87.6zM460.2 401.404c109.801 0 224 54.799 224 173 0 101.6-98.6 136.6-181.398 155.199-96.602 22.4-138.201 26.4-138.201 66 0 31 32.6 45 84 45 91.6 0 93.4-67 150-67 37.801 0 60.6 29.801 60.6 63.6 0 67-111.398 110.801-221.6 110.801-101 0-218.2-43.801-218.2-162.199 0-130.4 110.6-143.602 235.6-174.4 52-12.801 84-18.6 84-56 0-29.801-33.199-52.6-84.6-52.6-108 0-113.801 89.799-176.201 89.799-41 0-59-29.199-59-61.199 0-71.6 109.801-130 241-130z" />
<glyph unicode="&#xf189;" glyph-name="vk" horiz-adv-x="1152" d="M1090 948.604c-14.801-68.6-158.6-271-158.801-271.2-12.398-20-17.398-30 0-52.4 6.801-9.6 158.201-153.199 180.602-223 9.799-33.199-7.201-50-40.801-50h-117.801c-44.799 0-58 35.801-138 115.801-70 67.398-100 76.199-117.398 76.199-37.602 0-30.801-12.6-30.801-146.199 0-29-9.199-45.801-84.199-45.801-124.801 0-262 75.801-359.4 215.6-146.201 204.8-186.201 359.8-186.201 391 0 17.6 6.801 33.4 40.4 33.4h117.801c30.199 0 41.6-13.199 53.199-45.801 57.6-168 154.801-314.798 194.801-314.798 15 0 21.799 7 21.799 45v173.6c-4.398 80-46.799 86.6-46.799 115 0 13 11.199 27 30 27h185.199c24.801 0 33.201-13.4 33.201-43.4v-233.4c0-25 11.398-33.799 18.799-33.799 15 0 27.6 8.799 55 36.199 84.801 94.801 144.801 241 144.801 241 7.4 17.6 21.199 33.4 51.199 33.4h117.801c35.6 0 43-18.4 35.6-43.4z" />
<glyph unicode="&#xf18a;" glyph-name="weibo" d="M814 828.804c15.199 48-26.801 93.6-74.801 83.398-44-9.6-57.6 56.201-14.199 65.602 100.199 21.799 184.6-74.201 153-169.602-13.6-42.398-77.6-21.6-64 20.602zM429.6 290.603c-212.6 0-429.6 102.801-429.6 272.6 0 88.602 56 190.801 152.6 287.4 199.4 199.4 406.4 201.8 347.202 11.4-8-26.199 24.6-11.4 24.6-12 159 67.199 281 33.6 228-102.801-7.4-18.799 2.199-21.799 16.6-26.199 271.4-84.6 69.6-430.4-339.4-430.4zM717 583.204c-10.801 111.4-157 188-326.8 171.4-169.6-17.199-297.6-120.6-286.798-232 10.799-111.4 157-188 326.798-171.4 169.602 17.201 297.602 120.602 286.8 232zM695.8 1113.804c204.6 43.199 378.6-149 314.798-348.602-16.6-50-89.6-24.398-74.799 24 46.199 142.4-78.801 278.4-223.4 248-50.201-10.799-68.4 65.4-16.6 76.602zM538.8 491.804c-34.201-77.602-133.602-120-218.202-92.602-81.6 26.201-116 106.801-80.6 179.4 35.4 70.801 126.199 110.801 206.8 90.201 84-21.602 126.199-100.4 92-177zM366.2 551.804c-25.799 10.799-60-0.602-76-25.801-16.6-25.801-8.6-56 17.201-68 26.199-12 61.6-0.6 78.199 25.801 16 26.199 7.4 56.6-19.4 68zM431.4 578.604c-10.201 3.4-22.801-1.199-28.6-10.799-5.801-10.201-2.801-21.201 7.398-25.801 10.201-4 23.4 0.6 29.201 10.801 5.6 10.398 2.199 21.799-8 25.799z" />
<glyph unicode="&#xf18b;" glyph-name="renren" d="M428 845.804c0-220.8-122-410.8-295.2-494.8-72.801 86.6-116.801 197.6-116.801 319.8 0 245.398 178.199 448.798 412 488.2v-313.2zM510 176.004c-85.801 0-166.6 22-237 60.801 114.4 72.199 206.8 181.398 237 309.2 31-127.801 123.4-237 237.6-309.4-70.199-38.6-151-60.6-237.6-60.6zM891.2 351.004c-173.199 84-295.2 273.8-295.2 494.8v313.2c233.8-39.4 412-242.8 412-488.2 0-122.201-44-233.202-116.801-319.8z" />
<glyph unicode="&#xf19a;" glyph-name="wordpress" d="M123.4 845.204l203-556c-142 68.801-239.8 214.4-239.8 382.8 0 61.801 13.201 120.199 36.801 173.199zM799.2 693.404c0-36.4-14-78.6-32-137.4l-42.398-141.801-153.801 457.4c25.6 1.4 48.6 4 48.6 4 22.801 2.6 20.201 36.4-2.799 35 0 0-69-5.4-113.4-5.4-41.801 0-112 5.4-112 5.4-22.801 1.4-25.6-33.6-2.6-35 0 0 21.6-2.6 44.6-4l66.199-181.6-93.199-279.2-155 460.798c25.6 1.4 48.6 4 48.6 4 22.801 2.6 20.199 36.4-2.801 35 0 0-69-5.4-113.398-5.4-8 0-17.4 0.201-27.4 0.602 76.199 115.6 207 191.799 355.6 191.799 110.801 0 211.6-42.4 287.4-111.799-2 0.199-3.801 0.398-5.6 0.398-41.801 0-71.4-36.398-71.4-75.6 0-35 20.199-64.799 41.799-99.799 16.201-28.4 35-64.801 35-117.4zM519.4 634.804l130.799-358.4c0.801-2 1.801-4 3-5.801-44.199-15.6-91.6-24.199-141.199-24.199-41.801 0-82 6.199-120.199 17.4zM885.4 876.204c33.199-60.6 52-130.199 52-204.2 0-157-85-294-211.6-367.8l130 375.8c24.398 60.801 32.398 109.199 32.398 152.4 0 15.799-1 30.199-2.799 43.799zM1008 672.004c0-273.6-222.6-496-496-496-273.6 0-496 222.6-496 496 0 273.6 222.4 496 496 496 273.4 0 496-222.4 496-496zM985.2 672.004c0 261-212.398 473.2-473.2 473.2-261 0-473.2-212.2-473.2-473.2s212.398-473.2 473.2-473.2c261 0 473.2 212.2 473.2 473.2z" />
<glyph unicode="&#xf1a5;" glyph-name="delicious" d="M893 1048.004c2-7.6 3-15.801 3.199-24v-704.2c0-53-43-96-96-96h-704c-8.199 0-16.398 1-24 3-15.398 4-29.199 11.6-40.6 22-2.4 2.199-4.6 4.398-6.6 6.6-10.4 11.4-18 25.199-22 40.6-2 7.6-3 15.801-3 24v704c0 53 43 96 96 95.801h704c8.199 0 16.4-1 24-3 3.801-0.801 7.4-2 10.801-3.4 3.799-1.4 7.398-3 11-5 2.799-1.4 5.398-3 8-4.801 2.199-1.6 4.398-3.199 6.6-5 5-4 9.6-8.6 13.799-13.6 3.4-4.199 6.602-9 9.4-13.801 2.6-4.6 4.801-9.199 6.6-14.199 1-3 2-6 2.801-9zM832 320.004v352h-384v384h-352c-17.6 0-32-14.4-32-32v-352h384v-384h352c17.6 0 32 14.4 32 32z" />
<glyph unicode="&#xf1a6;" glyph-name="digg" d="M163.4 839.404v152.6h102v-501.4h-265.4v348.8h163.4zM163.4 572.604v184.6h-61.6v-184.6h61.6zM757.8 839.404h266.2v-487.4h-266.2v81.6h163.6v57h-163.6v348.8zM921.4 572.604v184.6h-61.6v-184.6h61.6zM450.2 490.604v348.8h266.602v-487.4h-266.602v81.6h164.201v57h-164.201zM552.6 757.204v-184.6h61.6v184.6h-61.6zM306.6 992.004h102.6v-102h-102.6v102zM306.6 839.404h102.6v-348.8h-102.6v348.8z" />
<glyph unicode="&#xf232;" glyph-name="whatsapp" d="M761.8 989.804c83.799-84 134.199-195.4 134.199-314 0-244.8-203.6-444-448.2-444h-0.201c-74.4 0-147.4 18.6-212.2 54l-235.4-61.801 63 230c-38.801 67.4-59.199 143.801-59.199 222 0 244.8 199.199 444 444 444 118.6 0 230.2-46.199 314-130.199zM447.8 306.603c203.398 0 373.2 165.6 373.2 369.202 0.199 98.6-42.6 191.199-112.199 261-69.602 69.799-162.201 108.199-260.8 108.199-203.6 0-369.2-165.6-369.2-369 0-69.801 19.398-137.6 56.398-196.4l8.801-14-37.199-136.199 139.6 36.6 13.4-8c56.6-33.6 121.6-51.4 188-51.4zM650.2 583.004c11-5.4 18.4-8.199 21-13.199 2.801-4.602 2.801-26.801-6.398-52.801-9.201-26-53.4-49.6-74.801-52.801-35.199-5.199-62.801-2.6-133.199 27.801-111.4 48.199-184 160.199-189.602 167.6-5.398 7.4-45.199 60.201-45.199 114.801s28.6 81.4 38.801 92.6c10.199 11 22.199 13.801 29.6 13.801s14.799 0 21.199-0.4c6.801-0.4 16 2.6 25-19 9.201-22.201 31.4-76.801 34.201-82.4 2.799-5.6 4.6-12 1-19.4-21.201-42.4-44-41-32.602-60.6 43-73.801 85.801-99.4 151-132 11-5.6 17.602-4.6 24 2.801 6.602 7.6 27.801 32.398 35.201 43.6 7.4 11.199 14.799 9.4 25 5.6 10.199-3.6 64.799-30.4 75.799-36z" />
<glyph unicode="&#xf263;" glyph-name="odnoklassniki" horiz-adv-x="640" d="M550.2 516.004c-54.799-34.801-130.199-48.6-180-53.801l41.801-41.199 152.6-152.6c55.801-57.201-35-146.6-91.4-91.4-38.199 38.801-94.199 94.801-152.6 153.199l-152.6-153c-56.4-55-147.199 35.201-90.801 91.4 38.801 38.801 94.201 94.801 152.602 152.6l41.199 41.201c-49.199 5.199-125.801 18.199-181.199 53.799-65.201 42-93.801 66.602-68.602 118 14.801 29.201 55.4 53.801 109.201 11.4 0 0 72.6-57.799 189.799-57.799 117.201 0 189.801 57.799 189.801 57.799 53.801 42.201 94.199 17.801 109.199-11.4 24.801-51.398-3.799-76-69-118.199zM60.6 924.604c0 143.4 116.6 259.4 259.4 259.4s259.4-116 259.4-259.4c0-142.799-116.6-258.798-259.4-258.798s-259.4 116-259.4 258.798zM192.6 924.604c0-70.199 57.201-127.4 127.4-127.4s127.4 57.201 127.4 127.4c0 70.801-57.201 128-127.4 128s-127.4-57.199-127.4-128z" />
<glyph unicode="&#xf265;" glyph-name="pocket" d="M815.2 1056.004c45.4 0 80.801-36.4 80.801-81.199v-270.4c0-249.4-199.6-448.4-447.6-448.4-249 0-448.4 199-448.4 448.4v270.4c0 44.199 37 81.199 81.199 81.199h734zM491.2 519.004c223.8 215 229.602 210.8 229.602 246.4 0 33.799-27.602 61.4-61.4 61.4-33.801 0-29.801-4.801-211-178.602-178.201 171-176.4 178.602-210.4 178.602-33.801 0-61.4-27.602-61.4-61.4 0-36.201 2.4-28.6 229.8-246.4 22-22.199 60-23.6 84.799 0z" />
<glyph unicode="&#xf281;" glyph-name="reddit" d="M880.6 777.004c110.6 0 147.4-148.199 47.6-199.4 4.4-15.799 6.201-33.4 6.201-50.199 0-167.6-188.801-303.4-421.6-303.4-231.8 0-420.602 135.801-420.602 303.4 0 16.799 1.602 33.6 5.201 49.4-101.801 51-65.4 200.2 45.799 200.2 30 0 57.4-12.4 76.801-32.6 71.6 49.4 166.801 81.199 272.6 85.6l60.801 275.2c2.6 9.801 12.199 16.801 22 14.201l194.799-43.201c13.201 25.4 39.801 44 70.602 44 44.199 0 79.398-36.199 79.398-79.398 0-43.201-35.398-79.4-79.398-79.4-43.201 0-78.4 35.199-78.4 78.4l-176.4 39.6-55.4-249.6c106.6-3.4 202.8-35.201 274.202-84.602 19.398 19.4 45.799 31.801 75.799 31.801zM258.8 566.204c0-43.199 35.398-78.6 79.398-78.398 43.201 0 78.4 35.199 78.4 78.398 0 44.201-35.199 79.4-78.4 79.4-44.199 0-79.398-35.4-79.398-79.4zM687.4 379.203c8 7 8 19.4-0.201 27.4-7 7-19.398 7-26.398 0-58-58-242.4-57-298 0-7 7-19.4 7-26.4 0-8-8-8-20.4 0-27.4 72.799-72.799 278.2-72.799 351 0zM685.8 487.603c44 0 79.199 35.4 79.398 78.4 0 44.199-35.398 79.4-79.398 79.4-43.201 0-78.4-35.4-78.4-79.4 0-43.199 35.199-78.4 78.4-78.4z" />
<glyph unicode="&#xf37d;" glyph-name="blogger" d="M893.2 738.604c4-17.799 4.801-268.2-5-303.4-14.199-50.6-35.799-88.799-70.398-124.199-47.801-48.801-98.801-75-163.801-83.801-37.4-5-402.4-3.799-432 1.602-89 16-177.6 89.398-208.8 188.6-12.6 40.199-14 70-12.799 273 1 162 2 190.199 6.199 207.798 22.801 93.602 85.201 166.801 172.201 201.202 47.199 18.799 78 21.6 216.798 20 88.4-1 114.801-2.201 126.6-5.801 49.201-15 92.4-41.6 131-81 54.201-55.199 81.602-116.6 81.801-182.6 0.199-34.4 5.6-47.199 25.801-59 12.799-7.4 17.199-8.199 57.398-10 24-1 46.4-3.4 50-5.4 11.4-6.199 21.4-21 25-37zM249 865.804c-24.4-24.602-12-72.201 21.199-81.602 6.201-1.6 48.602-2.799 101.602-2.398 86 0.398 91.398 0.799 100.6 6.6 17 10.799 24.6 24.199 24.6 43.199 0 21.201-8.199 34.4-26.801 43.801-12.799 6.6-15.799 6.799-103.6 6.799-97.6 0-102-0.6-117.6-16.398zM632.6 466.203c28.801 16.4 34 56.201 9.801 78.801-17 15.801-16 15.801-195.201 15.6-174.199-0.199-180.398-0.6-194.6-13.4-11.199-10.199-18.6-30.199-16.4-44.799 2.201-15.4 15.602-32.6 29.801-38.801 7.199-3.199 45.6-5.6 181.801-4l155 1.801z" />
<glyph unicode="&#xf39e;" glyph-name="facebook" horiz-adv-x="640" d="M558.28 608.004h-149.379v-448h-200.34v448h-162.781v185.32h162.781v141.24c0 160.68 95.719 249.44 242.16 249.44 70.139 0 143.5-12.52 143.5-12.52v-157.781h-80.84c-79.641 0-104.48-49.42-104.48-100.119v-120.26h177.82z" />
<glyph unicode="&#xf3cb;" glyph-name="mix" d="M0 1056.004h896v-408.2c0-113.201-176-119.801-176 0v47.6c0 113.6-165.4 118-176 8.6v-232.2c0-116-192-115.801-192 0v350.6c0 113.799-160.199 118.799-176 13v-477.202c0-116.199-176-112.398-176 0v697.8z" />
<glyph unicode="&#xf3fe;" glyph-name="telegram" d="M893.4 986.804l-135.201-637.602c-10.199-45-36.799-56.199-74.6-35l-206 151.801-99.4-95.6c-11-11-20.199-20.201-41.398-20.201l14.799 209.8 381.8 345c16.6 14.801-3.6 23-25.801 8.199l-472-297.2-203.2 63.6c-44.201 13.801-45 44.201 9.199 65.4l794.8 306.2c36.799 13.801 69-8.199 57-64.398z" />
<glyph unicode="&#xf409;" glyph-name="viber" d="M888 1084.204c84.4-73.398 131.199-235.798 99.6-493-30.4-249.2-218.2-273.2-251.4-284-14.398-4.6-140.6-36.199-305-22.398-18.199-21-42.199-48.602-59.6-67.4-31.799-34.201-51.4-66-84.6-55.6-27.6 8.398-26 50.199-26 50.199l0.199 103.199h-0.199c-240.2 67.602-236.8 316.8-234 449.8s28.6 240.4 101.801 313.6c131.6 120.801 401.798 104.6 401.798 104.6 229.202-1 332-75.6 357.4-99zM915.8 610.004c26.6 214.6-9.801 361-81.201 422.2-21.6 19.602-114.4 78-308.2 78.801 0 0-229.4 15-340.8-86-62-61.199-83-152.199-85.199-263.2-2.201-111-14.201-323.202 189.4-379.602-0.201 0-0.201 0 0 0 0 0-0.801-157.6-0.801-171.398-0.199-21 11.4-22 22-11.4 32.4 32.6 136.4 158 136.4 158 139.4-9 250.4 18.6 262.4 22.4 28 9 180.199 22.199 206 230.2zM637.8 771.604c0.799-17.199-25-18.4-25.801-1.199-2.199 44-22.801 65.4-65.199 67.799-17.201 1-15.602 26.801 1.398 25.801 55.801-3 86.801-35 89.602-92.4zM678.4 749.004c2 84.801-51 151.199-151.6 158.6-17 1.201-15.201 27 1.799 25.801 116-8.4 177.801-88.201 175.6-185-0.199-17.201-26.199-16.4-25.799 0.6zM772.4 722.204c0.199-17.199-25.801-17.398-25.801-0.199-1.199 163-109.799 251.8-241.6 252.8-17 0.199-17 25.799 0 25.799 147.4-1 266-102.799 267.4-278.4zM749.8 526.004v-0.4c-21.602-38-62-80-103.602-66.6l-0.398 0.6c-42.201 11.801-141.602 63-204.4 113-32.4 25.6-62 55.801-84.801 84.801-20.6 25.799-41.4 56.4-61.6 93.199-42.6 77-52 111.4-52 111.4-13.4 41.6 28.4 82 66.6 103.6h0.4c18.4 9.6 36 6.4 47.801-7.799 0 0 24.799-29.602 35.398-44.201 10-13.6 23.4-35.4 30.4-47.6 12.201-21.801 4.6-44-7.4-53.199l-24-19.201c-12.199-9.799-10.6-28-10.6-28s35.6-134.6 168.6-168.6c0 0 18.201-1.6 28 10.6l19.201 24c9.199 12 31.4 19.6 53.199 7.4 29.4-16.6 66.801-42.4 91.6-65.801 14-11.398 17.201-28.799 7.602-47.199z" />
<glyph unicode="&#xf44d;" glyph-name="flipboard" d="M0 1120.004h896v-896h-896v896zM716.8 761.604v179.201h-537.602v-537.602h179.201v179.201h179.199v179.199h179.201z" />
<glyph unicode="&#xf837;" glyph-name="buffer" d="M855.68 422.664l-393-195.641c-3.877-1.664-10.449-3.014-14.67-3.014-4.219 0-10.791 1.35-14.67 3.014l-393.020 195.641c-8 4-8 10.561 0 14.58l94.119 46.76c3.885 1.664 10.465 3.014 14.691 3.014 4.225 0 10.805-1.35 14.689-3.014l269.52-134c3.877-1.674 10.449-3.031 14.67-3.031 4.223 0 10.795 1.357 14.67 3.031l269.52 134c3.881 1.664 10.459 3.016 14.682 3.016s10.799-1.352 14.68-3.016l94.119-46.859c8.1-3.92 8.1-10.48 0-14.48zM855.68 695.724c8.1-4.021 8.1-10.58 0-14.621l-393-195.6c-3.877-1.664-10.449-3.016-14.67-3.016-4.219 0-10.791 1.352-14.67 3.016l-393.020 195.6c-8 4.041-8 10.621 0 14.621l94.119 46.859c3.885 1.664 10.465 3.014 14.691 3.014 4.225 0 10.805-1.35 14.689-3.014l269.52-134.16c3.879-1.656 10.451-3 14.67-3s10.791 1.344 14.67 3l269.52 134.16c3.881 1.664 10.459 3.016 14.682 3.016s10.799-1.352 14.68-3.016zM40.32 923.164c-8.1 3.721-8.1 9.779 0 13.48l393 180.559c3.9 1.549 10.473 2.807 14.67 2.807s10.77-1.258 14.67-2.807l393.020-180.559c8-3.701 8-9.76 0-13.48l-393.020-180.58c-3.904-1.531-10.477-2.775-14.67-2.775s-10.766 1.244-14.67 2.775z" />
<glyph unicode="&#xf839;" glyph-name="evernote" horiz-adv-x="768" d="M241.64 919.584c3.199-44.619-35.102-43.18-43.221-43.18-137.859 0-147.279 2-167.16-6.68-1.119-0.441-1.48 0-0.74 0.74l217.060 220.638c0.76 0.74 1.199 0.439 0.76-0.74-8.699-19.979-6.699-30.18-6.699-170.779zM399.64 303.584c-29.361 74.16 26 153.859 105.039 153.24 34.98 0 45.201-46.42 15.9-62.84-12.381-6.6-49.9-3.48-50.279-38.4-0.102-34.18 39.34-50 62.398-49.779h0.021c50.387 0 91.279 40.893 91.279 91.279v0.18c0 23.26-15.58 94.439-95.080 110.68-15.439 3.080-130 12.701-136.699 101.041-7.48-33.861-34.801-126.98-86.221-138.18-17.48-3.881-139.359-15.281-225.84 73.539 0 0-37.141 30.461-56.461 115.9-6.76 31.5-18.559 79.4-22.279 124 0 36 22.279 60.9 50.141 64.4 162 0 180-4.641 202 15.6 19.639 18.48 15.6 31 15.6 205.56 2 16.6 15.58 61.619 106.82 48.279 12-1.721 63.82-8.359 74.959-61.279l128.521-22.301c40.859-7.42 141.879-14 161.199-115.881 45.32-242.18 17.82-476.92 15.6-476.92-31.959-228.76-222.14-217.7-222.14-217.7-37.898 0.461-108.5 18.801-134.539 79.66zM561.52 713.264c-2-3.84-4.4-12 1.701-14 28.18-9.859 79.5-13.68 91.76-11.061 6.219 0.5 6.1 8.861 4.959 13.301-7.059 43.699-81.66 53-98.479 11.84z" />
</font>
</defs>
</svg>
